ZEOS

{inform_dle}
Sitemap Contact Home
 UploadGIG.com
Hide the ad unit

Member Area

Advertise

UploadGIG.com

Vote

Advertise

Advertise

Advertise

Advertise
» » Charlie Lennon - Irish Fiddle Complete Techniques
Category: Ebooks

Charlie Lennon - Irish Fiddle Complete Techniques

AuthorAuthor: Bo0mB0om | DateDate: 31-12-2016, 23:57
Charlie Lennon - Irish Fiddle Complete Techniques

Charlie Lennon - Irish Fiddle Complete Techniques
VHSRip | English | AVI | 640 x 480 | DX50 ~1838 kbps | 25 fps
MP3 128 Kbps 48.0 KHz | 2 channels | 00:49:25 | 698.5 MB
Genre: eLearning Video / Fiddle, Violin
Learn the essential techniques of Irish traditional music with this great VHS tutor. Includes holding the fiddle, gripping the bow, bowing techniques and ornamentation, finger ornamentation, cuts, rolls, runs, bends, triplets, staccato runs, legato runs, bow direction, double stopping, phrasing, regional styles and more.


Charlie Lennon - Irish Fiddle Complete Techniques

General
Complete name : Charlie Lennon - Irish Fiddle Techniques.avi
Format

: AVI
Format/Info : Audio Video Interleave
File size : 699 MiB
Duration : 49mn 25s
Overall bit rate : 1 976 Kbps
Writing application : VirtualDubMod 1.5.10.1 (build 2439/release)
Writing library : VirtualDubMod build 2439/release

Video
ID

: 0
Format

: MPEG-4 Visual
Format settings, BVOP : 1
Format settings, QPel : No
Format settings, GMC : No warppoints
Format settings, Matrix : Default (H.263)
Muxing mode : Packed bitstream
Codec ID : DX50
Codec ID/Hint : DivX 5
Duration : 49mn 25s
Bit rate : 1 838 Kbps
Width

: 640 pixels
Height

: 480 pixels
Display aspect ratio : 4:3
Frame rate : 25.000 fps
Color space : YUV
Chroma subsampling : 4:2:0
Bit depth : 8 bits
Scan type : Progressive
Compression mode : Lossy
Bits/(Pixel*Frame) : 0.239
Stream size : 650 MiB (93%)
Writing library : DivX 5.2.1 (WaffleDay) (UTC 2004-09-08)

Audio
ID

: 1
Format

: MPEG Audio
Format version : Version 1
Format profile : Layer 3
Mode

: Dual mono
Codec ID : 55
Codec ID/Hint : MP3
Duration : 49mn 25s
Bit rate mode : Constant
Bit rate : 128 Kbps
Channel(s) : 2 channels
Sampling rate : 48.0 KHz
Compression mode : Lossy
Stream size : 45.2 MiB (6%)
Alignment : Aligned on interleaves
Interleave, duration : 40 ms (1.00 video frame)
Interleave, preload duratio : 504 ms



Charlie Lennon - Irish Fiddle Complete Techniques

Charlie Lennon - Irish Fiddle Complete Techniques




Charlie Lennon - Irish Fiddle Complete Techniques

DOWNLOAD
(Buy premium account for maximum speed and resuming ability)

Tags:

Dear visitor, you are browsing our website as Guest.
We strongly recommend you to register and login to view hidden contents.
Comments: 0 » Add Comment